Mus. Clicca qui per ascoltare “Una mattina” di Ludovico Einaudi, buon ascolto. NINNA NANNA NINNA OH\r \r Bellissima e dolce ninna nanna per addormentare il tuo bambino. Lola Baron - Non Succedera Mio.flac 45 Mb 07. Musica: Garden of Untamed Roses by Lloyd Rodgers. Ninna Nanna: Voglio Di Piu' Mi Manchi: E La Luna Busso' Luna: Zona Venerdi' Ragazzo Mio: Se Bellissima: Dedicato: Petala: Non Sono Una Signora: In Alto Mare: Solitudini (Inedito) Credits (16) Mario Natale Arranged By, Conductor. ️ … Complete your I Pooh* collection. Drupi - Bella Bellissima.flac 38 Mb 05. The song Loredana Bertè - Ninna nanna is professional recreation. 40 likes. Get the Loredana Berté Setlist of the concert at Spazio 900, Rome, Italy on May 4, 2012 and other Loredana Berté Setlists for free on setlist.fm! 27 Songs. Loredana Berte download high quality complete mp3 albums. Clicca qui per ascoltare “Una mattina” di Ludovico Einaudi, buon ascolto. Matia Bazar - Solo Tu.flac 39 Mb 09. "Stifle Nacht, Heilige Nacht..." Musica dolcissima nel cielo salirà. I tiktok di katia. ... Ninna nanna (Facchinetti-Negrini) dall'album "Forse ancora poesia) del 1975. It is not by the original artist. cos'altro dire di te potrei comunque tu sia ti meriti un'altra poesia. Neil Sedaka - La Notte P Fatta Per Amare.flac 34 Mb 10. Quando cambia il vento so cambiare anch'io poi mi siedo e invento tanto amore lo so fare. Download our mobile app now. Buonanotte a tutti con una bellissima canzone di Massimo Ranieri SE STASERA SONO QUI. Sugarmusic Srl ℗ 1975 Warner Music Italia Srl Track 2-19. Cara bellissima e ancora di pi? Loredana Bertè lyrics with translations: Cosa ti aspetti da me, Non sono una signora, J'adore Venise, Non ti dico no, Il mare d'inverno, Dedicato, In alto mare 3:50. Notte di stelle con gli occhi all'in su: oggi è Natale, è tra noi Gesù. Track 2-18. Find album reviews, stream songs, credits and award information for Sei Bellissima: Best of Loredana Berte - Loredana Bertè on AllMusic - 2004 Per chi mi conosce e ha seguito le mie lezioni, sa bene che amo usare un sottofondo musicale durante le varie attività. Stream songs including "Linda", "E' bello riaverti" and more. Fonit Cetra Music Publishing/Sugarmusic Srl ℗ 1982 Warner Music Italia Srl Ed. Mirella Di Giovanni - Buonanotte - Canzone. Mus. Ricchi E Poveri - Ninna Nanna.flac 41 Mb 08. Cara bellissima e ancora di pi? Rudy Zerbi Coordinator. [Flac] Pop Italiano - Test&Copy + Cue Loredana Bertè - Complete Studio Discography + 2 Live + 5 Raccolte. Stream ad-free with Amazon Music Unlimited on mobile, desktop, and tablet. Rossano Eleuteri Bass. L'associazione ArteMusica promuove l'arte dello spettacolo attraverso la cultura, la coralità e spettacoli musicali. By using our services, you agree to our use of cookies. Jimmy Fontana - Il Mondo.flac 30 Mb 06. bellissimo!!!! Try it free. Negli ultimi anni ho utilizzato spesso la bellissima musica di un artista italiano straordinario, Ludovico Einaudi. Listen to Pooh (1975-1978) by Pooh on Apple Music. Peppino Gagliardi - La Ballata Dell' Uomo in Piu.flac 36 Mb 9 Ninna Nanna 10 Per I Tuoi Occhi 11 Io Non Ho 12 Sei Bellissima Lyrics 13 Non Sono Una Signora Lyrics 14 Il Tuo Palcoscenico 15 Serenade. La ninna nanna con tanto amore ogni Natale cantiamo per Gesù. Il calore di un tuo abbraccio accompagnato dalla melodia dolce della Ninna Nanna, sono un mix sicuro per permettere al tuo bambino di fare sonni sereni\r Download Loredana Berte mp3. ... Ninna Nanna per Bambini - Canzone per Dormire - Musica della Buonanotte. Available with an Apple Music subscription. Una chitarra, le nostre voci: la ninna nanna cantiamo per Gesù. LaTVdeiBambini LaTVdeiBambini. Claudio Mastracci Drums. Guia Jelo was born on May 5, 1952 in Catania, Sicily, Italy as Guglielma Jelo. Listen to your favorite songs from Ninna Nanna Mamma. Discover releases, reviews, credits, songs, and more about I Pooh* - Forse Ancora Poesia at Discogs. Over 100,000 English translations of Italian words and phrases. It is not by the original artist. Guia Jelo, Actress: La scorta. 04. See All. She is an actress, known for La scorta (1993), Stare fuori (2008) and Se chiudi gli occhi (2008). Yvonne è attualmente fidanzata con Tim Loden. sono una persona solare ... Facebook is showing information to help you better understand the purpose of a Page. Una bellissima intervista al rabbi Abraham Twerski che ci illustra una delle teorie sull'amore. DR10 -2.48 дБ -16.59 дБ 3:21 06-Ninna nanna DR12 -2.64 дБ -18.42 дБ 4:34 07-Dammi solo un minuto DR12 -3.35 дБ -18.69 дБ 3:38 08-Donna davvero DR13 -2.94 дБ -21.31 дБ 4:05 09-Mediterraneo DR10 -1.68 дБ -15.68 дБ 4:52 10-Cara bellissima Grazie mamme per il vostro supporto e per esserci sempre per cullare noi e i nostri piccoli e grandi sogni! 3 talking about this. cos'altro fare per te potrei spiegarti dovrei che neanche i miei sguardi sono miei. On back cover and booklet title is "Eres bellissima (Sei bellissima) Ed. Negli ultimi anni ho utilizzato spesso la bellissima musica di un artista italiano straordinario, Ludovico Einaudi. Try it free. 16 Songs. Ninna Nanna (Live).wav Peak level 97.7 % Track quality 100.0 % Test CRC 46FDAD5A Copy CRC 46FDAD5A Copy OK Track 7 Filename E:\Convert\Loredana Berte - Sei Bellissima\CD1\07. Available with an Apple Music subscription. Cara bellissima e ancora di pi? The song Loredana Bertè - Sei bellissima is professional recreation. Gianna Nannini lyrics with translations: I maschi, Un'estate italiana, Lontano dagli occhi, Motivo, Meravigliosa creatura, La Differenza, America Per completare i festeggiamenti per le nostre mamme condividiamo con voi questa bellissima ninna nanna di un compositore spagnolo, Montsalvatge. 4:13. In tutto il mondo la melodia, è una speranza di pace e armonia. ninna nanna mamma.. tienimi con te... nel tuo letto grande ..solo per un pò.. una ninna nanna.. io ti canterò.. e se ti addormenti.. mi addormenterò.. Buy Loredana Bertè - Ninna nanna Midi File from Singing Station online shop Cookies help us deliver our services. English Translation of “ninnananna” | The official Collins Italian-English Dictionary online. Dedicato mp3 download. 2 talking about this. Filename E:\Convert\Loredana Berte - Sei Bellissima\CD1\06. Soles Limaso. !...è tantissimo ke nn la cantavo! 16 Per Effetto Del Tempo 17 Prendi Fra Le Mani La Testa 18 Buongiorno Anche A Te Lyrics 19 Movie 20 La Goccia Per chi mi conosce e ha seguito le mie lezioni, sa bene che amo usare un sottofondo musicale durante le varie attività.

La Vera Faccia Di Alex Nuggets, Inter Femminile Serie A, Oroscopo Personalizzato Amy, Amicizia Significato Etimologico, Febbraio 2002 Calendario, La Notte Antonioni - Recensione, Tipi Di Ancora, Just Eat Teramo,